Watch WWE Hell in a Cell 2013 online

Categories
  • RAW (246)
  • SmackDown (227)
  • NXT (218)
  • ECW (21)
  • WWE DVD (132)
  • WWE PPV (62)
  • TNA (401)
  • FCW (97)
  • Others (87)
  • Type of Match
  • Others (2793)
  • No DQ (3)
  • I quit (7)
  • TLC (19)
  • Friends

    See the Lastest Soccer News yet?


    Want your site here?
    email dungdenvn@yahoo.com

    Watch WWE Wrestlemania 30 - XXX online for FREE

    Austin Vs Mcmahon - Wwf Dvd in WWE DVD
    - Type: WWE DVD
    - Type of Match: Others
    - Years: Updating
    - Length: Updating




    Share to Facebook Share to Twitter Share to MySpace Stumble It Share to Reddit Share to Delicious More...


    http://www.megaupload.com/?d=S2NLTEDK

    Complete name : WWE.Austin.vs.McMahon.DVDRip.x264-IDM.mp4
    Format : AVI
    Format/Info : Audio Video Interleave
    File size : 750 MiB
    Duration : 1h 19mn
    Overall bit rate : 1 323 Kbps
    Upload : Shaam

    Video
    Format : AVC
    Format/Info : Advanced Video Codec
    Format profile : High@L3.0
    Format settings, CABAC : Yes
    Format settings, ReFrames : 4 frames
    Codec ID : H264
    Duration : 1h 19mn
    Bit rate : 1 231 Kbps
    Width : 512 pixels
    Height : 384 pixels
    Display aspect ratio : 4/3
    Frame rate mode : Variable
    Frame rate : 29.970 fps
    Resolution : 24 bits
    Colorimetry : 4:2:0
    Scan type : Progressive
    Bits/(Pixel*Frame) : 0.209
    Stream size : 696 MiB (93%)
    Writing library : x264 core 93 r1542 5b86182

    Audio
    Format : AAC
    Format/Info : Advanced Audio Codec
    Format version : Version 4
    Format profile : LC
    Format settings, SBR : No
    Codec ID : FF
    Bit rate : 80.0 Kbps
    Channel(s) : 2 channels
    Channel positions : L R
    Sampling rate : 48.0 KHz
    Resolution : 16 bits
    Stream size : 45.3 MiB (6%)
    Alignment : Split accross interleaves
    Interleave, duration : 21 ms (0.64 video frame)
    Today Top views
    Smackdown 18/04/2014

    » Views: 4088
    Raw 14/04/2014

    » Views: 973
    Tna 17/04/2014

    » Views: 714
    Wrestlemania 30 Fall Out - Episode 1

    » Views: 599
    Wrestlemania 30 (2014)

    » Views: 555
    Legends' House 17/04/2014

    » Views: 540
    1 2 3 4 5 LAST





    WWE Wrestlemania XXX (2014) | Free Beauty Tips Online