Watch WWE Hell in a Cell 2013 online
Categories
  • RAW (288)
  • SmackDown (267)
  • NXT (260)
  • ECW (22)
  • WWE DVD (148)
  • WWE PPV (72)
  • TNA (497)
  • Others (155)
  • Type of Match
  • Others (3537)
  • No DQ (3)
  • I quit (9)
  • TLC (19)
  • Friends

    See the Lastest Soccer News yet?

    Other than wrestling, the most preferred sports in 2015 will be soccer and thus soccer betting or sportsbook earns their living from bettor from all over the world. In Asia region, Indonesia, Many people bet their money on wrestling and Taruhan Bola Tri7bet which is pretty clear why Indonesian people love to bet. With so many agen bola exist in internet world, Indonesia become the most popular country with the most bettor in the world. Soccer and wrestling is the most popular among those bettors.

    Flags For Every Major Sport Flags & Lots Of Sports Rooter Gear All At Special Savings!

    What is the best .22lr AR style rifle for under $300? The Mossberg 715T is. It has cheap magazines and only cost $189.

    If you are not interested in football statistics , then you have already missed a lot.

    At KnivesForSale.US we have a complete line of quality and affordable butterfly knives for sale at low discount prices. FREE shipping on orders over $99 in the continental U.S.

    For best experience try elektronik sigara satış website

    For additional local retractable banner stand visit newyorkbannerstands.

    Android tips and tricks for you. If you are andoid fan, you should be on our site

    Make income from home with the best network easier.

    Buy tickets by ourtravel heaven and be happy.

    The best trick to earn from Paid to Do site from an amazing trusted source from the best site.

    Trying to find betboo superbahis745 ? Check out this page: superbahis745.net

    Want your site here?
    email dungdenvn@yahoo.com

    Austin Vs Mcmahon - Wwf Dvd in WWE DVD
    - Type: WWE DVD
    - Type of Match: Others
    - Years: Updating
    - Length: Updating






    Share to Facebook Share to Twitter Share to MySpace Stumble It Share to Reddit Share to Delicious More...

    http://www.megaupload.com/?d=S2NLTEDK

    Complete name : WWE.Austin.vs.McMahon.DVDRip.x264-IDM.mp4
    Format : AVI
    Format/Info : Audio Video Interleave
    File size : 750 MiB
    Duration : 1h 19mn
    Overall bit rate : 1 323 Kbps
    Upload : Shaam

    Video
    Format : AVC
    Format/Info : Advanced Video Codec
    Format profile : High@L3.0
    Format settings, CABAC : Yes
    Format settings, ReFrames : 4 frames
    Codec ID : H264
    Duration : 1h 19mn
    Bit rate : 1 231 Kbps
    Width : 512 pixels
    Height : 384 pixels
    Display aspect ratio : 4/3
    Frame rate mode : Variable
    Frame rate : 29.970 fps
    Resolution : 24 bits
    Colorimetry : 4:2:0
    Scan type : Progressive
    Bits/(Pixel*Frame) : 0.209
    Stream size : 696 MiB (93%)
    Writing library : x264 core 93 r1542 5b86182

    Audio
    Format : AAC
    Format/Info : Advanced Audio Codec
    Format version : Version 4
    Format profile : LC
    Format settings, SBR : No
    Codec ID : FF
    Bit rate : 80.0 Kbps
    Channel(s) : 2 channels
    Channel positions : L R
    Sampling rate : 48.0 KHz
    Resolution : 16 bits
    Stream size : 45.3 MiB (6%)
    Alignment : Split accross interleaves
    Interleave, duration : 21 ms (0.64 video frame)
    Today Top views
    Raw 26/01/2015

    » Views: 20
    Royal Rumble (2015)

    » Views: 16
    Wwe 24: Wrestlemania 30 S01e01

    » Views: 13
    Total Divas 25/01/2015

    » Views: 11
    The Best Of Sting (2014)

    » Views: 9
    Vintage Collection 18/01/2015

    » Views: 7
    1 2 3 4 5 LAST





    WWE Night Of Champions (2014) | Free Beauty Tips Online