Watch WWE Hell in a Cell 2013 online
Categories
  • RAW (282)
  • SmackDown (262)
  • NXT (255)
  • ECW (22)
  • WWE DVD (148)
  • WWE PPV (71)
  • TNA (486)
  • Others (146)
  • Type of Match
  • Others (3440)
  • No DQ (3)
  • I quit (9)
  • TLC (19)
  • Friends

    See the Lastest Soccer News yet?

    If you are not interested in football statistics , then you have already missed a lot.

    At KnivesForSale.US we have a complete line of quality and affordable butterfly knives for sale at low discount prices. FREE shipping on orders over $99 in the continental U.S.

    For best experience try elektronik sigara satış website

    For additional local retractable banner stand visit newyorkbannerstands.

    Android tips and tricks for you. If you are andoid fan, you should be on our site

    Make income from home with the best network easier.

    Buy tickets by ourtravel heaven and be happy.

    The best trick to earn from Paid to Do site from an amazing trusted source from the best site.

    Trying to find betboo superbahis745 ? Check out this page: superbahis745.net

    Want your site here?
    email dungdenvn@yahoo.com

    Austin Vs Mcmahon - Wwf Dvd in WWE DVD
    - Type: WWE DVD
    - Type of Match: Others
    - Years: Updating
    - Length: Updating






    Share to Facebook Share to Twitter Share to MySpace Stumble It Share to Reddit Share to Delicious More...

    http://www.megaupload.com/?d=S2NLTEDK

    Complete name : WWE.Austin.vs.McMahon.DVDRip.x264-IDM.mp4
    Format : AVI
    Format/Info : Audio Video Interleave
    File size : 750 MiB
    Duration : 1h 19mn
    Overall bit rate : 1 323 Kbps
    Upload : Shaam

    Video
    Format : AVC
    Format/Info : Advanced Video Codec
    Format profile : High@L3.0
    Format settings, CABAC : Yes
    Format settings, ReFrames : 4 frames
    Codec ID : H264
    Duration : 1h 19mn
    Bit rate : 1 231 Kbps
    Width : 512 pixels
    Height : 384 pixels
    Display aspect ratio : 4/3
    Frame rate mode : Variable
    Frame rate : 29.970 fps
    Resolution : 24 bits
    Colorimetry : 4:2:0
    Scan type : Progressive
    Bits/(Pixel*Frame) : 0.209
    Stream size : 696 MiB (93%)
    Writing library : x264 core 93 r1542 5b86182

    Audio
    Format : AAC
    Format/Info : Advanced Audio Codec
    Format version : Version 4
    Format profile : LC
    Format settings, SBR : No
    Codec ID : FF
    Bit rate : 80.0 Kbps
    Channel(s) : 2 channels
    Channel positions : L R
    Sampling rate : 48.0 KHz
    Resolution : 16 bits
    Stream size : 45.3 MiB (6%)
    Alignment : Split accross interleaves
    Interleave, duration : 21 ms (0.64 video frame)





    WWE Night Of Champions (2014) | Free Beauty Tips Online